Graphic Design Resume Samples | god your mama and me | Infantiles y Familiares

Movies - Other

18+ Darker Shades Of Elise 2017 UNCENSORED Movies HDRip XviD AAC New Source with Sample ☻rDX☻

  • Download 5x Faster
  • Download torrent
  • Direct Download
  • Rate this torrent +  |  -

Torrent info

Name:18+ Darker Shades Of Elise 2017 UNCENSORED Movies HDRip XviD AAC New Source with Sample ☻rDX☻

Total Size: 706.09 MB

Magnet: Magnet Link

Seeds: 103

Leechers: 36

Stream: Watch Online @ Movie4u

Last Updated: 2017-07-19 03:07:31 (Update Now)

Torrent added: 2017-07-12 15:20:31



VPN For Torrents

Torrent Files List


 

tracker

leech seeds
 

Torrent description

----------------------------------------------------------------
18+ Darker Shades Of Elise 2017 UNCENSORED Movies HDRip XviD AAC New Source with Sample ☻rDX☻

SCREEN SHOTS & POSTER:

http://postimage.co.nr/2017/7/computer/index.html
http://postimage.co.nr/2017/7/computer/1.html
http://postimage.co.nr/2017/7/computer/2.html
http://postimage.co.nr/2017/7/computer/3.html
http://postimage.co.nr/2017/7/computer/4.html
http://postimage.co.nr/2017/7/computer/5.html
http://postimage.co.nr/2017/7/computer/6.html
http://postimage.co.nr/2017/7/computer/7.html
http://postimage.co.nr/2017/7/computer/8.html
http://postimage.co.nr/2017/7/computer/9.html
http://postimage.co.nr/2017/7/computer/10.html

File size : 698 MiB
Duration : 1 h 43 min
Overall bit rate mode : Constant
Overall bit rate : 942 kb/s
Movie name : 18+ Darker Shades Of Elise 2017 UNCENSORED Movies HDRip XviD AAC New Source ☻rDX☻

Video
ID : 2
Format : AVC
Format/Info : Advanced Video Codec
Format profile : [emailprotected]/* */
Format settings, CABAC : Yes
Format settings, ReFrames : 2 frames
Format settings, GOP : M=1, N=12
Codec ID : V_MPEG4/ISO/AVC
Duration : 1 h 43 min
Bit rate mode : Constant
Bit rate : 559 kb/s
Width : 720 pixels
Height : 304 pixels
Display aspect ratio : 2.35:1
Frame rate mode : Constant
Frame rate : 24.000 FPS
Color space : YUV
Chroma subsampling : 4:2:0
Bit depth : 8 bits
Scan type : Progressive
Bits/(Pixel*Frame) : 0.106
Stream size : 400 MiB (57%)
Title : ☻rDX☻
Default : Yes
Forced : No

Audio
ID : 1
Format : AC-3
Format/Info : Audio Coding 3
Mode extension : CM (complete main)
Format settings, Endianness : Big
Codec ID : A_AC3
Duration : 1 h 43 min
Bit rate mode : Constant
Bit rate : 384 kb/s
Channel(s) : 6 channels
Channel positions : Front: L C R, Side: L R, LFE
Sampling rate : 48.0 kHz
Frame rate : 31.250 FPS (1536 spf)
Bit depth : 16 bits
Compression mode : Lossy
Stream size : 285 MiB (41%)
Title : ☻rDX☻
Default : Yes
Forced : No

related torrents

Torrent name

health leech seeds Size
 


comments (0)

Main Menu